<?xml version="1.0" standalone="no"?>
<!DOCTYPE svg PUBLIC "-//W3C//DTD SVG 1.1//EN" "http://www.w3.org/Graphics/SVG/1.1/DTD/svg11.dtd" >
<svg xmlns="http://www.w3.org/2000/svg">
<metadata></metadata>
<defs>
<font id="wlm_web_iconizedregular" horiz-adv-x="2048" >
<font-face units-per-em="2048" ascent="1920" descent="-128" />
<missing-glyph horiz-adv-x="500" />
<glyph horiz-adv-x="1660" />
<glyph horiz-adv-x="1660" />
<glyph unicode="&#xd;" horiz-adv-x="1660" />
<glyph unicode="*" d="M0 896q0 -368 232 -648t584 -356l284 496q-36 -4 -76 -4q-140 0 -260 72t-188 192l-440 760q-136 -236 -136 -512zM260 1580l288 -496q56 144 186 234t290 90h888q-136 232 -372 372t-516 140q-224 0 -422 -90t-342 -250zM640 896q0 160 112 272t272 112t272 -112 t112 -272t-112 -272t-272 -112t-272 112t-112 272zM1024 -128q424 0 724 300t300 724q0 200 -76 384h-608q172 -152 172 -384q0 -140 -72 -260z" />
<glyph unicode="+" d="M0 1216q0 -292 206 -498t498 -206q228 0 412 132l676 -772l256 256l-772 676q132 184 132 412q0 292 -206 498t-498 206t-498 -206t-206 -498zM192 1216q0 212 150 362t362 150t362 -150t150 -362t-148 -360q-152 -152 -364 -152t-362 150t-150 362zM384 1152h256v-256 h128v256h256v128h-256v256h-128v-256h-256v-128z" />
<glyph unicode="-" d="M0 1216q0 -292 206 -498t498 -206q228 0 412 132l676 -772l256 256l-772 676q132 184 132 412q0 292 -206 498t-498 206t-498 -206t-206 -498zM192 1216q0 212 150 362t362 150t362 -150t150 -362t-148 -360q-152 -152 -364 -152t-362 150t-150 362zM384 1152v128h640 v-128h-640z" />
<glyph unicode="." d="M0 896q0 -368 232 -648t584 -356l284 496q-36 -4 -76 -4q-140 0 -260 72t-188 192l-440 760q-136 -236 -136 -512zM260 1580l288 -496q56 144 186 234t290 90h888q-136 232 -372 372t-516 140q-224 0 -422 -90t-342 -250zM640 896q0 160 112 272t272 112t272 -112 t112 -272t-112 -272t-272 -112t-272 112t-112 272zM1024 -128q424 0 724 300t300 724q0 200 -76 384h-608q172 -152 172 -384q0 -140 -72 -260z" />
<glyph unicode="@" d="M0 212q0 -140 100 -240t240 -100h1368q140 0 240 100t100 240v1368q0 140 -100 240t-240 100h-1368q-140 0 -240 -100t-100 -240v-1368zM384 512v768v8l376 -436l-372 -372q-4 16 -4 32zM460 1396q24 12 52 12h1024q28 0 52 -12l-564 -656zM480 388l364 364l180 -212 l180 212l364 -364q-16 -4 -32 -4h-1024q-16 0 -32 4zM1288 852l376 436v-8v-768q0 -16 -4 -32z" />
<glyph unicode="A" d="M2 618q-4 -5 -4 -11q0 -9 10 -19q428 -384 1016 -384q216 0 440 66t388 186q28 20 12 42t-44 10q-372 -156 -776 -156q-548 0 -1012 268q-20 12 -30 -2zM580 888q0 -128 72 -196t184 -68q88 0 148 26t128 98q52 -76 96 -112q24 -12 40 4l132 112q20 16 0 44q-4 4 -14 18 t-14 18t-12 18t-10 22t-6 22t-6 28t-2 30v264v34v38t-2 34t-4 36t-4 32t-8 32t-14 28t-18 30t-26 24q-88 84 -252 84q-140 0 -246 -60t-130 -196q-8 -28 24 -36l164 -20q24 4 28 32q20 104 136 104q64 0 96 -44q20 -32 20 -124v-20q-248 -32 -320 -60q-180 -80 -180 -276z M828 916q0 172 252 172v-36q0 -124 -32 -180q-44 -76 -116 -76q-48 0 -76 32t-28 88zM1684 572q102 12 164 12q80 0 96 -20q7 -9 7 -28q0 -61 -67 -228q-4 -16 6 -20q2 -1 5 -1q8 0 17 9q84 64 118 188q20 73 20 112q0 28 -10 40q-12 16 -74 26q-26 4 -55 4q-42 0 -91 -8 q-84 -14 -144 -54q-10 -10 -10 -21q0 -16 18 -11z" />
<glyph unicode="B" d="M0 212q0 -140 100 -240t240 -100h1368q140 0 240 100t100 240v1368q0 140 -100 240t-240 100h-1368q-140 0 -240 -100t-100 -240v-1368zM256 624v544q0 204 146 350t354 146h252q208 0 352 -138t144 -342q4 -40 34 -68t70 -28h84q40 0 70 -36t30 -76v-352 q0 -204 -146 -350t-354 -146h-536q-208 0 -354 146t-146 350zM640 608q0 -40 28 -68t68 -28h576q40 0 68 28t28 68t-28 68t-68 28h-576q-40 0 -68 -28t-28 -68zM640 1184q0 -40 28 -68t68 -28h288q40 0 68 28t28 68t-28 68t-68 28h-288q-40 0 -68 -28t-28 -68z" />
<glyph unicode="C" d="M0 896q0 -368 232 -648t584 -356l284 496q-36 -4 -76 -4q-140 0 -260 72t-188 192l-440 760q-136 -236 -136 -512zM260 1580l288 -496q56 144 186 234t290 90h888q-136 232 -372 372t-516 140q-224 0 -422 -90t-342 -250zM640 896q0 160 112 272t272 112t272 -112 t112 -272t-112 -272t-272 -112t-272 112t-112 272zM1024 -128q424 0 724 300t300 724q0 200 -76 384h-608q172 -152 172 -384q0 -140 -72 -260z" />
<glyph unicode="D" d="M0 212q0 -140 100 -240t240 -100h1368q140 0 240 100t100 240v1368q0 140 -100 240t-240 100h-1368q-140 0 -240 -100t-100 -240v-1368zM128 896v684q0 88 62 150t150 62h684v-896h896v-684q0 -88 -62 -150t-150 -62h-684v896h-896z" />
<glyph unicode="E" d="M0 156q0 -140 64 -200q87 -87 228 -87q156 0 376 107q188 -92 400 -92q284 0 512 166t320 426h-476q-52 -92 -142 -146t-200 -54t-200 54t-142 146q-44 88 -44 184v4h772h472q4 44 4 100q0 236 -116 440q56 149 56 263q0 139 -84 225q-65 62 -210 62q-24 0 -50 -2 q-184 -12 -408 -112q-32 4 -64 4q-308 0 -546 -188t-310 -480q200 252 448 372q-28 -24 -128 -128q-172 -168 -298 -374t-180 -378t-54 -312zM188 -16q-56 56 -56 151q0 130 104 333q108 -296 376 -460q-168 -77 -279 -76q-92 -1 -145 52zM696 896q8 144 116 246t254 102 t254 -102t116 -246h-740zM1392 1580q153 65 256 65q93 0 144 -53q52 -52 52 -144q0 -85 -44 -204q-152 232 -408 336z" />
<glyph unicode="F" d="M0 64q0 -80 56 -136t136 -56h1664q80 0 136 56t56 136v1664q0 80 -56 136t-136 56h-1664q-80 0 -136 -56t-56 -136v-1664zM160 32v64h864v64h-864v64h864v64h-864v64h864v544h-184v292h184v192q0 204 98 308t318 104h352v-316h-288q-60 0 -78 -30t-18 -98v-160h384 l-52 -292h-332v-544h480v-64h-480v-64h480v-64h-480v-64h480v-64h-480v-32h-384v32h-864z" />
<glyph unicode="G" d="M4 180v16v-16zM4 180q4 -16 8 -36q-4 20 -8 36zM4 308q172 80 372 80h62h62q-96 96 -96 200q0 60 36 132q-28 -4 -68 -4q-220 0 -368 128v-132v-404zM4 1588q216 188 444 188h716l-160 -136h-224q108 -40 168 -154t60 -254q0 -216 -200 -372q-88 -68 -114 -108t-26 -96 q0 -44 64 -112t124 -112q140 -96 196 -200t56 -264q0 -48 -12 -96h616q140 0 240 100t100 240v1068h-384v-384h-128v384h-384v128h384v384h128v-384h384v172q0 140 -100 240t-240 100h-1368q-136 0 -236 -98t-104 -234zM12 144q24 -116 118 -194t214 -78h576q4 32 4 68 t-8 76q-8 24 -18 46t-28 42t-32 36t-44 38t-46 34t-58 40t-62 40q-84 28 -176 28h-20q-121 0 -230 -44q-118 -48 -190 -132zM84 1236q24 -180 138 -312t252 -136h8q133 0 212 122q63 97 63 227q0 38 -5 79q-24 180 -138 308t-252 132h-9q-132 0 -211 -118q-63 -94 -63 -223 q0 -38 5 -79z" />
<glyph unicode="H" d="M64 640q0 -52 38 -90t90 -38t90 38t38 90v512q0 52 -38 90t-90 38t-90 -38t-38 -90v-512zM384 448q0 -80 56 -136t136 -56h64v-256q0 -52 38 -90t90 -38t90 38t38 90v256h128v-256q0 -52 38 -90t90 -38t90 38t38 90v256h64q80 0 136 56t56 136v704h-1152v-704zM388 1280 h1144q-16 152 -106 276t-230 184l84 156q4 16 -10 22q-5 2 -9 2q-8 0 -13 -8l-80 -160q-100 40 -208 40t-208 -40l-80 160q-5 8 -13 8q-4 0 -9 -2q-14 -6 -10 -22l84 -156q-140 -60 -230 -184t-106 -276zM612 1472q0 40 26 66t66 26t66 -26t26 -66t-26 -66t-66 -26t-66 26 t-26 66zM1124 1472q0 40 26 66t66 26t66 -26t26 -66t-26 -66t-66 -26t-66 26t-26 66zM1600 640q0 -52 38 -90t90 -38t90 38t38 90v512q0 52 -38 90t-90 38t-90 -38t-38 -90v-512z" />
<glyph unicode="I" d="M0 212q0 -140 100 -240t240 -100h1368q140 0 240 100t100 240v1368q0 140 -100 240t-240 100h-1368q-140 0 -240 -100t-100 -240v-1368zM300 1424q0 72 50 118t128 46t124 -46t46 -118q0 -68 -48 -114t-124 -46h-4q-76 0 -124 46t-48 114zM320 204v932h308v-932h-308z M800 204q2 424 2 657t-2 275h312v-132q100 156 276 156q164 0 262 -106t98 -314v-536h-312v500q0 212 -156 212q-112 0 -160 -116q-8 -24 -8 -76v-520h-312z" />
<glyph unicode="J" d="M0 868q0 268 168 460q-12 24 -20 58t-14 94q-2 20 -2 42q0 44 8 96q12 78 44 162q4 0 16 2t52 -2t86 -18t122 -56t164 -102q144 40 400 40t400 -40q84 60 162 102t126 56t84 18t52 4l16 -4q32 -84 42 -162q6 -49 6 -90q0 -26 -2 -48q-6 -60 -12 -94t-18 -58 q168 -192 168 -460q0 -148 -26 -268t-72 -208t-118 -156t-156 -110t-190 -70t-218 -38t-246 -10t-244 10t-218 38t-192 70t-154 110t-116 156t-72 208t-26 268zM272 600q0 -92 22 -162t54 -118t92 -82t114 -52t140 -28t156 -12t174 -2t172 2t156 12t142 28t114 52t92 82 t52 118t20 162q0 156 -128 280q-36 40 -88 60t-116 22q-21 1 -42 1q-41 0 -80 -3q-58 -4 -146 -10t-150 -6t-148 6t-146 10q-40 3 -82 3q-21 0 -42 -1q-64 -2 -114 -22t-90 -60q-128 -124 -128 -280zM544 624q0 72 30 122t74 50t72 -50t28 -122q0 -68 -28 -118t-72 -50 t-74 50t-30 118zM888 324q-2 4 -2 8t2 8q4 8 12 8q16 8 24 -12q12 -36 38 -58t60 -22t62 22t40 58q4 20 24 12q8 0 10 -8t2 -16q-16 -48 -54 -80t-84 -32t-82 32t-52 80zM952 454q0 14 22 24t48 10t48 -10t22 -24t-22 -24t-48 -10t-48 10t-22 24zM1292 624q0 72 30 122 t74 50t74 -50t30 -122q0 -68 -30 -118t-74 -50t-74 50t-30 118z" />
<glyph unicode="K" d="M2 884q18 -448 306 -728t728 -288h21q426 0 701 312q282 320 288 720v15q0 391 -298 705q-273 288 -643 288q-42 0 -85 -4q-424 -12 -730 -292q-289 -264 -289 -679q0 -24 1 -49zM384 512v768v8l376 -436l-372 -372q-4 16 -4 32zM460 1396q24 12 52 12h1024q28 0 52 -12 l-564 -656zM480 388l364 364l180 -212l180 212l364 -364q-16 -4 -32 -4h-1024q-16 0 -32 4zM1288 852l376 436v-8v-768q0 -16 -4 -32z" />
<glyph unicode="L" d="M0 264q184 68 332 68q184 0 376 -124l188 644q-44 28 -72 44q-144 76 -276 76q-20 0 -36 -4q-136 -12 -280 -60q-28 -12 -52 -20zM240 1108q192 76 344 76q180 -4 364 -124l184 636q-132 76 -212 96q-76 20 -156 20q-156 -4 -344 -80zM876 108q224 -128 372 -128 q168 0 380 88l176 604q-180 -56 -336 -56q-240 0 -412 120zM1116 944q188 -120 396 -120q172 0 352 80v4l8 4l176 612q-176 -68 -344 -68q-224 0 -404 124z" />
<glyph unicode="M" d="M192 816q0 -200 60 -374t152 -310q56 -80 96 -128t104 -92q59 -40 114 -40h10q60 4 156 44t180 40q80 0 176 -42q88 -38 152 -38h12q64 0 126 42t96 84t90 126q88 124 140 288q-16 8 -34 18t-64 46t-82 78t-64 116t-28 158v9q0 238 220 379q-132 196 -376 204 q-13 1 -26 1q-85 0 -202 -43q-136 -50 -164 -50q-32 0 -148 44t-188 44q-132 -4 -244 -72t-180 -184q-84 -148 -84 -348zM1020 1448q13 -1 27 -1q70 0 139 35q82 42 138 110q111 131 110 281q0 23 -2 47q-76 -4 -162 -48t-138 -108q-115 -132 -115 -273q0 -21 3 -43z" />
<glyph unicode="N" d="M0 896q0 -424 300 -724t724 -300t724 300t300 724t-300 724t-724 300t-724 -300t-300 -724zM444 708v172h196v-164q0 -28 18 -46t44 -18t44 18t18 46v368q0 108 76 184t184 76t184 -76t76 -184v-76l-116 -36l-84 36v76q0 24 -18 42t-42 18t-42 -18t-18 -42v-376 q0 -108 -76 -184t-184 -76t-184 76t-76 184zM1084 708v168l84 -40l116 40v-168q0 -24 18 -42t44 -18t44 18t18 42v164h196v-164q0 -108 -76 -184t-184 -76t-184 76t-76 184z" />
<glyph unicode="O" d="M60 904q0 -416 272 -724t688 -308q420 0 694 308t274 724q0 456 -274 736t-694 280q-424 0 -692 -280t-268 -736zM672 924q0 172 12 292t46 240t106 182t184 62t186 -64t110 -182t48 -242t12 -288q0 -104 -2 -180t-14 -182t-36 -178t-62 -142t-100 -106t-142 -36t-140 36 t-98 106t-60 142t-32 178t-14 180t-4 182z" />
<glyph unicode="P" d="M0 896q0 -128 36 -264l908 824l-388 352q-256 -136 -406 -380t-150 -532zM72 516q128 -316 424 -496v880zM604 -36q200 -92 420 -92q292 0 542 158t378 422h-1340v-488zM668 1852l780 -708v684q-204 92 -424 92q-180 0 -356 -68zM1552 560h436q60 164 60 336 q0 268 -132 502t-364 370v-1208z" />
<glyph unicode="Q" d="M0 1044q16 52 52 112q-38 -115 -38 -284q0 -42 2 -88q4 40 16 96q16 -192 136 -404q260 -448 756 -488q40 -2 80 -2l80 2q12 4 16 4q96 4 188 28q172 40 308 134t214 200t132 238t74 238t26 216t6 148t-4 58l-24 -152q-32 280 -76 388q-28 72 -50 110t-30 44t-12 6 q20 -48 30 -90t6 -62v-16q-8 24 -26 60t-90 110t-160 102q-171 57 -278 57q-42 0 -74 -9h-8h4l26 -6t64 -14t78 -20t74 -28t46 -36q-104 0 -204 -28q-4 0 8 -2t36 -8t54 -16t64 -28t70 -40t70 -56t64 -72t54 -92t36 -118q-44 88 -96 104q24 -70 24 -172v-30 q-4 -122 -28 -198l-8 8q-20 56 -68 76q9 -56 9 -113q0 -74 -15 -151q-26 -136 -94 -184q-4 0 8 56q22 84 22 103q0 5 -2 5q-4 -4 -16 -24q-60 -88 -126 -146t-124 -82t-128 -24t-116 10t-110 44t-92 50t-76 52q30 -8 67.5 -8t82.5 8q90 16 138 52q12 4 30 18t26 18t22 14 t20 12t20 8t18 4t16 2q28 -8 42 14t-10 46q-56 65 -135 65q-29 0 -61 -9q-16 -4 -54 -20t-64 -24q-17 -5 -44 -5q-13 0 -28 1q-46 4 -90 32q-108 64 -108 140l8 32q8 28 64 52q44 -8 92 -32v36q4 8 -4 44q-4 36 -16 60h4v4q0 12 52 44q28 20 76 52q36 20 36 24l4 4h4 q24 20 28 60v4v4q4 8 0 12v4v4q-4 12 -72 12h-88q-72 0 -116 92q24 128 140 196l-76 -4q-132 -28 -196 -108q-59 13 -115 13q-48 0 -93 -9q-20 0 -44 4q-96 88 -100 184q-12 -12 -32 -34t-50 -112q-24 -71 -24 -156q0 -22 2 -46v-12q-44 -64 -48 -88q-52 -104 -84 -284z" />
<glyph unicode="R" d="M0 212q0 -140 100 -240t240 -100h1368q140 0 240 100t100 240v1368q0 140 -100 240t-240 100h-1368q-140 0 -240 -100t-100 -240v-1368zM384 432q0 72 52 122t124 50t122 -50t50 -122t-50 -124t-124 -52t-124 52t-50 124zM384 868v252q356 0 610 -254t254 -610h-252 q0 256 -180 434t-432 178zM384 1312v252q356 0 656 -176t476 -476t176 -656h-252q0 436 -310 746t-746 310z" />
<glyph unicode="S" d="M0 1344q0 -168 92 -304q-12 -76 -12 -148q0 -388 274 -662t666 -274q84 0 172 16q136 -84 296 -84q232 0 396 164t164 396q0 172 -96 316q8 64 8 128q0 388 -276 662t-664 274q-76 0 -152 -12q-140 88 -308 88q-232 0 -396 -164t-164 -396zM458 566q18 94 114 102h11 q46 0 87 -30q46 -34 88 -82t62 -60q40 -24 108 -46q47 -15 107 -15q27 0 57 3q96 10 152 74q40 55 40 97v7q-4 44 -56 76t-112 52t-128 28q-212 32 -370 138q-143 96 -143 247q0 15 1 31q16 180 134 282t278 118q51 5 99 5q276 0 457 -157q72 -60 82 -128q2 -15 2 -30 q0 -48 -26 -80q-34 -42 -86 -50h-5q-35 0 -91 50q-60 54 -146 110t-174 60q-156 0 -224 -108q-24 -35 -24 -66q0 -56 80 -98q28 -16 68 -24q36 -8 134 -30t140 -34t120 -38t120 -56t86 -78t68 -108q25 -59 25 -118q0 -118 -103 -230q-154 -168 -382 -180q-34 -1 -66 -1 q-167 0 -272 35q-126 42 -230 138q-85 85 -85 165q0 15 3 29z" />
<glyph unicode="T" d="M0 212q0 -140 100 -240t240 -100h1368q140 0 240 100t100 240v1368q0 140 -100 240t-240 100h-1368q-140 0 -240 -100t-100 -240v-1368zM576 1028v200q112 36 160 76q60 52 96 122t48 182h200v-328h328v-252h-328v-364q0 -132 8 -152q16 -36 56 -60q44 -28 104 -28 q108 0 216 68v-220q-92 -44 -166 -62t-158 -18q-76 0 -150 26t-128 70t-74 96t-20 148v496h-192z" />
<glyph unicode="U" d="M4 252q296 -188 644 -188q280 0 512 108t378 282t226 384t80 422v52q124 92 208 220q-116 -52 -240 -68q136 84 184 232q-124 -72 -268 -100q-124 132 -308 132q-172 0 -296 -122t-124 -298q0 -48 12 -96q-256 12 -482 128t-382 312q-60 -100 -60 -212q0 -224 188 -348 q-100 0 -188 52v-8q0 -148 94 -264t242 -148q-56 -12 -112 -12q-40 0 -80 8q44 -128 150 -210t246 -82q-232 -180 -524 -180q-52 0 -100 4z" />
<glyph unicode="V" d="M0 1304l84 -108q8 4 18 12t44 28t62 32t58 12t46 -20q32 -36 174 -500t174 -532q36 -76 98 -134t150 -86q27 -9 54 -9q63 0 130 45q88 60 216 174t284 286t280 402t164 454q11 64 12 119q0 215 -176 285q-71 30 -147 30q-129 0 -273 -86q-236 -140 -276 -400 q79 48 143 48q26 0 49 -8q80 -28 90 -116q2 -13 2 -27q0 -78 -48 -177q-196 -368 -284 -368q-40 0 -76 94t-92 314q-12 60 -32 180t-38 204t-50 172t-90 126q-41 27 -93 27q-22 0 -45 -5q-72 -16 -162 -70t-168 -120t-142 -130t-83 -85z" />
<glyph unicode="W" d="M0 212q0 -140 100 -240t240 -100h1368q140 0 240 100t100 240v1368q0 140 -100 240t-240 100h-1368q-140 0 -240 -100t-100 -240v-1368zM124 896q0 372 264 636t636 264t636 -264t264 -636t-264 -636t-636 -264t-636 264t-264 636zM212 896q0 -236 126 -432t334 -296 l-388 1060q-72 -160 -72 -332zM348 1340h52t54 2t58 2t52 2t38 4l14 2q32 0 34 -32t-30 -36q-44 -4 -92 -8l296 -880l176 536l-128 344l-84 8q-20 0 -28 18t2 34t30 16q136 -12 216 -12q36 0 90 2t90 6l36 4q32 0 34 -32t-30 -36q-44 -4 -92 -8l292 -872l80 272 q64 196 64 260q0 108 -68 224q-80 132 -80 192q0 56 40 100t96 44h12q-232 212 -548 212q-208 0 -388 -100t-288 -268zM796 120q112 -36 228 -36q140 0 268 48q-4 4 -4 12l-248 680zM1432 196q184 108 294 294t110 406q0 208 -100 388q4 -40 4 -84q0 -136 -60 -288z" />
<glyph unicode="X" d="M0 896q0 -368 84 -704q448 -64 940 -64t940 64q84 336 84 704t-84 704q-448 64 -940 64t-940 -64q-84 -336 -84 -704zM768 512v768l640 -384z" />
<glyph unicode="Y" d="M0 1384h272q72 -60 290 -326t234 -310q4 -32 4 -180t-12 -164q-20 -20 -70 -26t-122 -6h-72l-16 -88q48 0 220 4t200 4q444 0 472 -4l8 92q-20 0 -148 2t-140 6q-8 32 -10 186q-1 51 -1 88q0 74 3 90q20 56 256 250t280 206q8 0 24 4t24 4h148l84 128h-800l32 -128h220 l-368 -332q-20 28 -162 212t-214 288h276v124h-912v-124zM1760 428l4 -132l60 -8l68 -4l20 132l-72 4zM1780 1088l4 -572l120 -8l144 552q-160 4 -268 28z" />
<glyph unicode="Z" d="M0 1216q0 -292 206 -498t498 -206q228 0 412 132l676 -772l256 256l-772 676q132 184 132 412q0 292 -206 498t-498 206t-498 -206t-206 -498zM192 1216q0 212 150 362t362 150t362 -150t150 -362t-150 -362t-362 -150t-362 150t-150 362zM384 1152h256v-256h128v256h256 v128h-256v256h-128v-256h-256v-128z" />
<glyph unicode="a" d="M0 212q0 -140 100 -240t240 -100h1368q140 0 240 100t100 240v1368q0 140 -100 240t-240 100h-1368q-140 0 -240 -100t-100 -240v-1368zM244 492q8 12 24 4q352 -208 772 -208q284 0 552 104q4 4 18 10t22 6q20 12 32 -6t-8 -34q-28 -20 -64 -40q-256 -152 -568 -152 q-448 0 -776 296q-7 5 -7 11q0 4 3 9zM672 900q0 200 180 272q64 32 188 48q36 4 128 12v24q0 88 -20 120q-32 44 -96 44h-12q-104 -12 -124 -100q-4 -28 -28 -32l-164 20q-28 8 -24 32q48 240 340 260h36q160 0 256 -88q12 -12 24 -30l20 -30t14 -36t8 -34t4 -38t2 -36v-44 v-40v-260q0 -72 64 -156q16 -28 -4 -44q-52 -44 -128 -108q-16 -16 -40 -4q-40 32 -96 112q-80 -84 -160 -108q-56 -16 -116 -16q-112 0 -182 68t-70 192zM916 928q0 -56 28 -90t76 -34q4 0 12 2l8 2q64 16 96 76q32 56 32 180v32q-76 0 -128 -12q-124 -36 -124 -156z M1514 466q0 7 10 14q32 20 68 32q57 17 111 17q11 0 21 -1q64 -4 76 -20q8 -12 8 -28v-8q-4 -52 -30 -120t-74 -108q-8 -5 -14 -5q-3 0 -6 1q-8 4 -4 16q53 130 53 176q0 14 -5 20q-13 16 -69 16q-28 0 -67 -4q-8 0 -32 -2t-32 -6q-14 0 -14 10z" />
<glyph unicode="b" d="M0 532q0 -272 196 -466t468 -194h720q276 0 470 194t194 466v468q0 60 -40 106t-92 46h-112h-4q-52 0 -92 38t-44 90q0 272 -192 456t-472 184h-336q-272 0 -468 -194t-196 -466v-728zM512 512q0 52 38 90t90 38h768q52 0 90 -38t38 -90t-38 -90t-90 -38h-768 q-52 0 -90 38t-38 90zM512 1280q0 52 38 90t90 38h384q52 0 90 -38t38 -90t-38 -90t-90 -38h-384q-52 0 -90 38t-38 90z" />
<glyph unicode="c" d="M0 384v128h2048v-128h-2048zM0 896v128h2048v-128h-2048zM0 1408v128h2048v-128h-2048zM384 128v128h1280v-128h-1280zM384 640v128h1280v-128h-1280zM384 1152v128h1280v-128h-1280z" />
<glyph unicode="d" d="M0 128v128h1408v-128h-1408zM0 384v128h2048v-128h-2048zM0 640v128h1408v-128h-1408zM0 896v128h2048v-128h-2048zM0 1152v128h1408v-128h-1408zM0 1408v128h2048v-128h-2048z" />
<glyph unicode="e" d="M0 384v128h2048v-128h-2048zM0 896v128h2048v-128h-2048zM0 1408v128h2048v-128h-2048zM640 128v128h1408v-128h-1408zM640 640v128h1408v-128h-1408zM640 1152v128h1408v-128h-1408z" />
<glyph unicode="f" d="M0 896q0 -356 216 -630t552 -362v864h-184v292h184v192q0 204 98 308t318 104h352v-316h-288q-60 0 -78 -30t-18 -98v-160h384l-52 -292h-332v-888q380 48 638 338t258 678q0 424 -300 724t-724 300t-724 -300t-300 -724z" />
<glyph unicode="g" d="M0 896q0 -424 300 -724t724 -300t724 300t300 724t-300 724t-724 300t-724 -300t-300 -724zM228 388q0 140 132 244q132 100 312 104q-16 36 -16 80q0 16 4 36q-148 8 -240 104q-100 100 -100 248q0 144 124 248t280 104h568l-136 -148h-128q64 -84 64 -208 q0 -148 -136 -252q-64 -52 -64 -92q4 -36 92 -100q92 -64 128 -136t36 -176q0 -144 -120 -244q-128 -104 -332 -104q-188 0 -320 72q-148 84 -148 220zM460 432q0 -76 68 -132t168 -56q144 0 212 56q52 44 52 128q0 16 -4 32q-12 48 -120 124l-28 20q-40 12 -84 12h-4 q-104 0 -182 -54t-78 -130zM548 1208q12 -92 68 -160t124 -72q48 0 80 36q44 50 44 129q0 22 -4 47q-12 92 -68 160t-124 68h-4q-44 0 -76 -36q-42 -49 -42 -132q0 -19 2 -40zM1152 1152v128h256v256h128v-256h256v-128h-256v-256h-128v256h-256z" />
<glyph unicode="h" d="M0 896q0 -424 300 -724t724 -300t724 300t300 724t-300 724t-724 300t-724 -300t-300 -724zM256 896q0 140 98 238t238 98t238 -98t98 -238t-98 -238t-238 -98t-238 98t-98 238zM1120 896q0 140 98 238t238 98t238 -98t98 -238t-98 -238t-238 -98t-238 98t-98 238z" />
<glyph unicode="i" d="M0 376q0 -140 160 -228t388 -88q244 0 386 116t142 272q0 116 -42 194t-146 154q-48 32 -94 82t-46 86q0 44 18 74t82 78q152 120 152 280q0 104 -46 190t-126 118h172l120 88h-536q-184 0 -326 -118t-142 -274q0 -164 114 -278t294 -114q28 0 48 4q-24 -52 -24 -100 q0 -76 72 -148h-46h-46q-220 0 -374 -118t-154 -270zM192 432q0 116 118 200q113 80 260 80h14q68 0 132 -20q16 -12 46 -32t42 -30t36 -26t34 -28t24 -28t22 -32t12 -36q4 -28 4 -56q0 -276 -388 -276q-152 0 -254 84t-102 200zM310 1400q-4 31 -4 60q0 97 46 168 q58 88 155 88h9q104 -4 190 -100t104 -232q4 -31 4 -59q0 -98 -48 -171q-59 -90 -156 -90h-8q-102 4 -188 102t-104 234zM1152 1280h384v-384h128v384h384v128h-384v384h-128v-384h-384v-128z" />
<glyph unicode="j" d="M0 212q0 -140 100 -240t240 -100h1368q140 0 240 100t100 240v1368q0 140 -100 240t-240 100h-1368q-140 0 -240 -100t-100 -240v-1368zM364 392q0 132 144 180v4q-52 32 -52 100q0 84 52 108v4q-52 16 -92 76q-40 68 -40 140q0 112 76 188q80 72 184 72q76 0 144 -40 q72 0 172 40v-160q-24 -8 -64 -20q12 -36 12 -68q0 -100 -60 -174t-152 -86q-64 -8 -64 -68q0 -20 20 -40q28 -28 80 -36q220 -36 220 -188q0 -240 -288 -240q-120 0 -196 40q-96 52 -96 168zM528 400q0 -80 136 -80q120 0 120 84q0 80 -132 80q-124 0 -124 -84zM544 1004 q0 -108 100 -108q92 0 92 108q0 48 -20 80q-28 36 -72 36q-100 0 -100 -116zM1008 1492q0 48 32 82t76 34t76 -34t32 -82t-32 -82t-76 -34t-76 34t-32 82zM1028 564q4 28 4 104v484q0 76 -4 104h176q-4 -32 -4 -100v-480q0 -80 4 -112h-176zM1280 1104v152h76v60q0 44 -4 72 h180q-4 -32 -4 -68v-64h136v-152q-8 0 -30 2t-38 2h-68v-292q0 -104 68 -104q48 0 88 28v-156q-60 -32 -140 -32q-112 0 -156 80q-32 60 -32 192v280v4h-24q-20 0 -52 -4z" />
<glyph unicode="k" d="M0 212q0 -140 100 -240t240 -100h1368q140 0 240 100t100 240v1368q0 140 -100 240t-240 100h-1368q-140 0 -240 -100t-100 -240v-1368zM384 512v768v8l376 -436l-372 -372q-4 16 -4 32zM460 1396q24 12 52 12h1024q28 0 52 -12l-564 -656zM480 388l364 364l180 -212 l180 212l364 -364q-16 -4 -32 -4h-1024q-16 0 -32 4zM1288 852l376 436v-8v-768q0 -16 -4 -32z" />
<glyph unicode="l" d="M0 896q0 -424 300 -724t724 -300t724 300t300 724t-300 724t-724 300t-724 -300t-300 -724zM432 1128q4 212 160 358t356 170q49 6 96 6q190 0 344 -92q192 -114 224 -334q7 -56 7 -109q0 -207 -111 -379q-128 -198 -343 -198q-20 0 -41 2q-44 4 -72 14t-76 44t-56 38 q-40 -192 -88 -318t-148 -198q-14 55 -14 126q0 47 6 100q16 134 32 204t48 192t44 190q-29 65 -29 142q0 17 1 34q8 96 72 162q41 43 93 43q28 0 59 -13q64 -24 70 -90q1 -12 1 -25q0 -55 -21 -119q-26 -78 -50 -156q-14 -47 -14 -87q0 -27 6 -51q16 -60 96 -76 q21 -4 41 -4q80 0 145 64q82 80 114 198q21 79 21 163q0 42 -5 85q-16 130 -80 198q-96 96 -232 106l-38 2q-114 0 -212 -52q-114 -60 -184 -180q-54 -93 -54 -196q0 -29 4 -60q8 -32 26 -64t30 -52t12 -58t-28 -82q-213 49 -213 322q0 15 1 30z" />
<glyph unicode="m" d="M0 128h1132q-12 128 -12 256h-96q-396 0 -772 116l44 120q352 -108 728 -108h100l28 256h-384q0 444 248 896h-1016v-1536zM384 1152v256h128v-256h-128zM928 920h408l-36 -180q-16 -84 -24 -216q248 24 480 96l44 -120q-260 -80 -528 -104v-28q0 -120 12 -240h764v1536 h-856l-8 -20q-116 -196 -184 -396q-56 -164 -72 -328zM1016 1664h176q84 136 184 256h-192q-92 -124 -168 -256zM1132 128q16 -132 44 -256h156q-16 64 -28 136q-12 60 -20 120h-152zM1536 1152v256h128v-256h-128z" />
<glyph unicode="n" d="M0 212q0 -140 100 -240t240 -100h1368q140 0 240 100t100 240v1368q0 140 -100 240t-240 100h-1368q-140 0 -240 -100t-100 -240v-1368zM444 708v172h196v-164q0 -28 18 -46t44 -18t44 18t18 46v368q0 108 76 184t184 76t184 -76t76 -184v-76l-116 -36l-84 36v76 q0 24 -18 42t-42 18t-42 -18t-18 -42v-376q0 -108 -76 -184t-184 -76t-184 76t-76 184zM1084 708v168l84 -40l116 40v-168q0 -24 18 -42t44 -18t44 18t18 42v164h196v-164q0 -108 -76 -184t-184 -76t-184 76t-76 184z" />
<glyph unicode="o" d="M128 32q0 -64 48 -112t112 -48h1472q64 0 112 48t48 112v1216q0 68 -34 148t-78 124l-288 288q-44 44 -126 78t-146 34h-960q-64 0 -112 -48t-48 -112v-1728zM256 32v1728q0 32 32 32h960q16 0 32 -4v-508h508q4 -16 4 -32v-1216q0 -32 -32 -32h-1472q-32 0 -32 32z M520 128h524v184h-120l100 148l224 -332h280l-368 540l328 484h-272l-192 -284l-192 284h-272l328 -484zM1408 1408v328q12 -12 24 -20l284 -284q8 -12 20 -24h-328z" />
<glyph unicode="p" d="M0 212q0 -140 100 -240t240 -100h1368q140 0 240 100t100 240v1368q0 140 -100 240t-240 100h-1368q-140 0 -240 -100t-100 -240v-1368zM316 896q0 200 104 368t280 260l268 -240l-624 -572q-28 96 -28 184zM368 636l292 264v-608q-208 124 -292 344zM732 252v336h928 q-88 -184 -262 -292t-374 -108q-152 0 -292 64zM776 1556q124 48 248 48q152 0 292 -64v-472zM1392 664v836q156 -96 248 -258t92 -346q0 -116 -40 -232h-300z" />
<glyph unicode="q" d="M128 32q0 -64 48 -112t112 -48h1472q64 0 112 48t48 112v1216q0 68 -34 148t-78 124l-288 288q-44 44 -126 78t-146 34h-960q-64 0 -112 -48t-48 -112v-1728zM256 32v1728q0 32 32 32h960q16 0 32 -4v-508h508q4 -16 4 -32v-1216q0 -32 -32 -32h-1472q-32 0 -32 32z M428 1152l224 -1024h220l152 604l136 -604h200l260 1024h-340v-184h88l-104 -452l-132 636h-212l-156 -636l-112 636h-224zM1408 1408v328q12 -12 24 -20l284 -284q8 -12 20 -24h-328z" />
<glyph unicode="r" d="M0 146q0 -114 80 -192t192 -78t192 78t80 192t-80 194t-192 80t-192 -80t-80 -194zM0 832q396 0 676 -280t280 -680h396q0 368 -182 678t-492 492t-678 182v-392zM0 1528q448 0 830 -222t604 -604t222 -830h392q0 416 -162 796t-436 654t-654 436t-796 162v-392z" />
<glyph unicode="s" d="M64 832q0 -396 282 -678t678 -282t678 282t282 678t-282 678t-678 282q-72 0 -140 -12q-4 4 -4 8q35 25 35 55q0 8 -3 17q-12 60 -92 60q-16 0 -32 -4q-44 -8 -70 -38q-20 -23 -20 -47q0 -7 2 -15q8 -44 60 -56v-4q-304 -88 -500 -344t-196 -580zM296 832q0 300 212 516 q132 132 312 184l84 -140l24 160q48 8 96 8q300 0 516 -212q132 -132 184 -312l-140 -84l160 -24q8 -48 8 -96q0 -300 -212 -516q-132 -132 -312 -184l-84 140l-24 -160q-48 -8 -96 -8q-300 0 -516 212q-132 132 -184 312l140 84l-160 24q-8 48 -8 96zM528 336l392 296 q44 -20 96 -24l100 -216l8 240q40 20 68 52l128 -44l-92 96q20 44 20 88l216 100l-240 8v4l296 392l-392 -296q-44 20 -96 24l-100 216l-8 -240q-40 -20 -68 -52l-128 44l92 -96q-20 -44 -20 -88l-216 -100l240 -8v-4zM728 1824q-1 3 -1 5q0 14 17 31q20 20 52 24q12 4 24 4 q56 0 64 -32q4 -24 -24 -44q-24 16 -50 10t-42 -30q-32 8 -40 32zM836 792q-4 20 -4 40q0 54 32 104q44 68 120 84q20 4 40 4h24q28 -4 52 -16l-144 -108l-108 -144q-8 20 -12 36zM948 656l144 108l108 144q8 -20 12 -36q4 -20 4 -40q0 -39 -16 -76q-24 -56 -76 -88 q-28 -16 -60 -24q-20 -4 -40 -4h-24q-28 4 -52 16zM1024 1024v8v-8z" />
<glyph unicode="t" d="M380 1080v292q160 52 232 112q88 72 140 174t68 262h292v-472h476v-368h-476v-524q0 -192 12 -220q20 -56 80 -88q68 -44 152 -44q156 0 312 104v-324q-132 -64 -238 -88t-230 -24q-112 0 -220 36t-184 100t-106 138t-30 218v716h-280z" />
<glyph unicode="u" d="M0 896q0 -424 300 -724t724 -300t724 300t300 724t-300 724t-724 300t-724 -300t-300 -724zM284 432q36 -4 72 -4q212 0 376 128q-96 4 -174 62t-110 150q32 -4 60 -4q40 0 80 8q-108 20 -176 104t-68 196v4q64 -36 136 -40q-136 92 -136 252q0 84 44 152 q240 -296 624 -316q-8 36 -8 68q0 128 90 216t214 88q132 0 224 -96q100 20 192 76q-36 -108 -136 -168q92 12 176 48q-60 -92 -152 -160v-36q0 -156 -58 -306t-162 -276t-272 -204t-372 -78q-252 0 -464 136z" />
<glyph unicode="v" d="M0 212q0 -140 100 -240t240 -100h1368q140 0 240 100t100 240v1368q0 140 -100 240t-240 100h-1368q-140 0 -240 -100t-100 -240v-1368zM416 1136q24 28 62 70t136 118t166 92q13 2 25 2q32 0 57 -16q34 -22 52 -74t30 -102t24 -122t20 -104q60 -244 96 -244 q56 0 172 220q30 54 30 97q0 37 -22 65q-24 32 -63 32q-38 0 -89 -30q32 184 212 260q70 29 126 29q77 0 130 -53q52 -49 52 -133q0 -33 -8 -71q-20 -132 -96 -270t-168 -240t-168 -170t-128 -100q-40 -29 -78 -29q-15 0 -30 5q-52 16 -90 52t-58 80q-20 40 -104 316 t-104 296q-20 16 -50 8t-58 -28l-28 -20z" />
<glyph unicode="w" d="M0 896q0 -424 300 -724t724 -300t724 300t300 724t-300 724t-724 300t-724 -300t-300 -724zM128 896q0 372 262 634t634 262t634 -262t262 -634t-262 -634t-634 -262t-634 262t-262 634zM256 896q0 -220 118 -400t314 -272l-364 976q-68 -144 -68 -304zM384 1308 q28 -4 48 -4l204 12q32 0 34 -30t-30 -34q-40 -4 -88 -4l280 -812l168 492l-120 320l-80 4q-20 4 -26 20t4 30t26 14q128 -12 204 -12l204 12q32 0 34 -30t-30 -34q-40 -4 -88 -4l280 -804l76 248q60 184 60 240q0 100 -64 208q-76 120 -76 176q0 52 36 92t92 40h8h4 q-220 196 -520 196q-196 0 -366 -90t-274 -246zM808 180q104 -32 216 -32q132 0 256 44l-8 8l-236 632zM1412 248q172 100 276 272t104 376q0 192 -96 360q8 -40 8 -80q0 -124 -60 -264z" />
<glyph unicode="x" d="M0 512q0 -160 112 -272t272 -112h1280q160 0 272 112t112 272v768q0 160 -112 272t-272 112h-1280q-160 0 -272 -112t-112 -272v-768zM128 512v768q0 104 76 180t180 76h1280q104 0 180 -76t76 -180v-768q0 -104 -76 -180t-180 -76h-1280q-104 0 -180 76t-76 180z M768 384l640 512l-640 512v-1024z" />
<glyph unicode="y" d="M0 212q0 -140 100 -240t240 -100h1368q140 0 240 100t100 240v1368q0 140 -100 240t-240 100h-1368q-140 0 -240 -100t-100 -240v-1368zM256 1260v96h684v-96h-204q52 -76 158 -216t122 -156l276 248h-164l-24 96h600l-64 -96h-112l-36 -8q-32 -8 -210 -152t-194 -188 q-2 -10 -2 -43.5t2 -90.5q4 -114 8 -142h104t112 -4l-4 -68q-24 4 -356 4q-20 0 -150 -4t-166 -4l12 64h54t92 6t54 22q8 8 8 120t-4 136q-12 32 -174 232t-218 244h-204zM1576 444v100l60 -4l52 -4l-12 -100l-52 4zM1592 612v428q80 -16 200 -20l-108 -416z" />
<glyph unicode="z" d="M0 1216q0 -292 206 -498t498 -206q228 0 412 132l676 -772l256 256l-772 676q132 184 132 412q0 292 -206 498t-498 206t-498 -206t-206 -498zM192 1216q0 212 150 362t362 150t362 -150t150 -362t-150 -362t-362 -150t-362 150t-150 362zM384 1152v128h640v-128h-640z " />
<glyph unicode="~" d="M0 1216q0 -292 206 -498t498 -206q228 0 412 132l676 -772l256 256l-772 676q132 184 132 412q0 292 -206 498t-498 206t-498 -206t-206 -498zM192 1216q0 212 150 362t362 150t362 -150t150 -362t-148 -360q-152 -152 -364 -152t-362 150t-150 362zM384 1152v128h640 v-128h-640z" />
<glyph unicode="&#xad;" d="M0 1216q0 -292 206 -498t498 -206q228 0 412 132l676 -772l256 256l-772 676q132 184 132 412q0 292 -206 498t-498 206t-498 -206t-206 -498zM192 1216q0 212 150 362t362 150t362 -150t150 -362t-148 -360q-152 -152 -364 -152t-362 150t-150 362zM384 1152v128h640 v-128h-640z" />
<glyph unicode="&#xb1;" d="M0 1216q0 -292 206 -498t498 -206q228 0 412 132l676 -772l256 256l-772 676q132 184 132 412q0 292 -206 498t-498 206t-498 -206t-206 -498zM192 1216q0 212 150 362t362 150t362 -150t150 -362t-148 -360q-152 -152 -364 -152t-362 150t-150 362z" />
<glyph unicode="&#x2000;" horiz-adv-x="960" />
<glyph unicode="&#x2001;" horiz-adv-x="1920" />
<glyph unicode="&#x2002;" horiz-adv-x="960" />
<glyph unicode="&#x2003;" horiz-adv-x="1920" />
<glyph unicode="&#x2004;" horiz-adv-x="640" />
<glyph unicode="&#x2005;" horiz-adv-x="480" />
<glyph unicode="&#x2006;" horiz-adv-x="320" />
<glyph unicode="&#x2007;" horiz-adv-x="320" />
<glyph unicode="&#x2008;" horiz-adv-x="240" />
<glyph unicode="&#x2009;" horiz-adv-x="384" />
<glyph unicode="&#x200a;" horiz-adv-x="106" />
<glyph unicode="&#x2010;" d="M0 1216q0 -292 206 -498t498 -206q228 0 412 132l676 -772l256 256l-772 676q132 184 132 412q0 292 -206 498t-498 206t-498 -206t-206 -498zM192 1216q0 212 150 362t362 150t362 -150t150 -362t-148 -360q-152 -152 -364 -152t-362 150t-150 362zM384 1152v128h640 v-128h-640z" />
<glyph unicode="&#x2011;" d="M0 1216q0 -292 206 -498t498 -206q228 0 412 132l676 -772l256 256l-772 676q132 184 132 412q0 292 -206 498t-498 206t-498 -206t-206 -498zM192 1216q0 212 150 362t362 150t362 -150t150 -362t-148 -360q-152 -152 -364 -152t-362 150t-150 362zM384 1152v128h640 v-128h-640z" />
<glyph unicode="&#x2012;" d="M0 1216q0 -292 206 -498t498 -206q228 0 412 132l676 -772l256 256l-772 676q132 184 132 412q0 292 -206 498t-498 206t-498 -206t-206 -498zM192 1216q0 212 150 362t362 150t362 -150t150 -362t-148 -360q-152 -152 -364 -152t-362 150t-150 362zM384 1152v128h640 v-128h-640z" />
<glyph unicode="&#x2013;" d="M0 1216q0 -292 206 -498t498 -206q228 0 412 132l676 -772l256 256l-772 676q132 184 132 412q0 292 -206 498t-498 206t-498 -206t-206 -498zM192 1216q0 212 150 362t362 150t362 -150t150 -362t-148 -360q-152 -152 -364 -152t-362 150t-150 362zM384 1152v128h640 v-128h-640z" />
<glyph unicode="&#x2014;" d="M0 1216q0 -292 206 -498t498 -206q228 0 412 132l676 -772l256 256l-772 676q132 184 132 412q0 292 -206 498t-498 206t-498 -206t-206 -498zM192 1216q0 212 150 362t362 150t362 -150t150 -362t-148 -360q-152 -152 -364 -152t-362 150t-150 362zM384 1152v128h640 v-128h-640z" />
<glyph unicode="&#x2022;" d="M828 916q0 100 76 176t168 76q88 0 166 -76t78 -176q0 -104 -78 -176t-166 -72q-92 0 -168 72t-76 176z" />
<glyph unicode="&#x202f;" horiz-adv-x="384" />
<glyph unicode="&#x205f;" horiz-adv-x="480" />
<glyph unicode="&#xe000;" horiz-adv-x="1660" d="M0 0v1660h1660v-1660h-1660z" />
</font>
</defs>
</svg>
